HqCollect.me

Barebacking Boys Club: Fraternity Secrets / Клуб любителей небезопасного секса: Секреты студенческого братства (Ivan Tofuk, Wildlife Productions) [2011 г., All Sex, Anal, Oral, Twinks, Frat Studs, Butt Play, Bisexual Scene, SiteRip] (1.87 GB)


Barebacking Boys Club: Fraternity Secrets / Клуб любителей небезопасного секса: Секреты студенческого братства (Ivan Tofuk, Wildlife Productions) [2011 г., All Sex, Anal, Oral, Twinks, Frat Studs, Butt Play, Bisexual Scene, SiteRip]

Description

Barebacking Boys Club: Fraternity Strategies

Клуб любителей небезопасного секса: Секреты студенческого братства
-

Год производства: 2011 г.
Страна: Eastern Europe
Жанр: All Intercourse, Anal, Dental, Twinks, Frat Guys, Bottom Play, Bisexual World
Продолжительность: 02:24:37

Режиссер: Ivan Tofuk
Студия: Wildlife Productions

В ролях: John, Tommy, Anthony, Jeff, Paulo Mack, Scott, Carol Barris, Fabricio Padre, Marik

Описание: I hereby promise towards the Barebacking Boys Team to also have my bum available, clean and prepared all the time. To freely acknowledge all cum that my brothers offer. Never to say zero, regardless of width or width. I pledge to generally be a part of the B.B.C. for life. Six boys jizzed out in fresh satisfaction and have taken this oath.

Доп. информация: http://www.gayhotmovies.com/movie/202096/Barebackin...ternity-Secrets/

Качество видео: SiteRip
Формат видео: WMV
Видео кодек: Windows Media
Аудио кодек: WMA
Видео: WMV2, 720x404 (16/9), 29.970 fps, INCH 680 Kbps (0.193 bit/pixel)
Аудио: WMA2, 48.0 KHz, 2 ch, 128 Kbps

MediaInfo

Полное имя: H:XXX[apreder]XXX_Barebacking_Boys_Club_Fraternity_Secrets(2011)SiteRip.wmvФормат : Windows MediaРазмер файла : 1,91 ГбайтПродолжительность : 2 ч. 24 м.Режим общего битрейта : ПостоянныйОбщий поток : 1891 Кбит/секМаксимальный общий битрейт : 1854 Кбит/секДата кодирования : UTC 1970-01-01 00:00:00.000WM/EncodingSettings: Lavf52.93.0
ВидеоИдентификатор : 1Формат : WMV2Идентификатор кодека : WMV2Идентификатор кодека/Информация : Windows Media Movie 8Описание кодека : wmv2Продолжительность : 2 ч. 24 м.Битрейт : 1680 Кбит/секШирина : 720 пикселейВысота : 404 пикселяСоотношение сторон : 16:9Частота кадров : 29,970 кадров/секБитовая глубина : 8 битБит/(Пиксели*Кадры) : 0.193Размер потока : 1,70 Гбайт (89%)
АудиоИдентификатор : 2Формат : WMAВерсия формата : Edition 2Идентификатор кодека : 161Идентификатор кодека/Информация : Windows Media SoundОписание кодека : Windows Media Audio V8Продолжительность : 2 ч. 24 м.Битрейт : 128 Кбит/секКаналы : 2 каналаЧастота : 48,0 КГцБитовая глубина : 16 битРазмер потока : 132 Мбайт (7%)

Скриншоты

Скриншоты резерв

-

Мой
1605 релиз на pornolab.net

Filelist

[apreder]XXX_Barebacking_Boys_Club_Fraternity_Secrets(2011)SiteRip.wmv 2051489755