HqCollect.me

Geile Helena / Horny Helen / Хелена в сексуальном возбуждении (Pit Anderson, Man's Best) [1999 г., All Sex, Bisexual, Anal, Oral, Threesomes, Twinks, VOD] (1.04 GB)


Geile Helena / Horny Helen / Хелена в сексуальном возбуждении (Pit Anderson, Man's Best) [1999 г., All Sex, Bisexual, Anal, Oral, Threesomes, Twinks, VOD]

Description

Geile Helena / Horny Sue

Хелена в сексуальном возбуждении
-

Год производства: 1999 г.
Страна: Germany, Czech Republic
Жанр: All Intercourse, Bisexual, Anal, Verbal, Threesomes, Twinks
Продолжительность: 01:10:15

Режиссер: Abyss Anderson
Студия: Man's Best

В ролях: Gregor, Helena, Joachim, Karim, Sandro

Описание: A cute 19-year-old woman has gone out inside the snowfall looking forward to a bus. She lights up a cigarette and a teen aged lad comes to her to butt one. They start talking and go back to his condominium where he provides her a lunchtime and she begins to recount erotic encounters that are several with her incredibly cute and well-endowed partner that is. In one single picture he really unloads huge-thick gobs of spooge from his , uncut cock that is dense. Her friend that was new is told by her they 'd had to reunite at him also a combat she supported pet food a supper of started. He found it after one-bite and quit the apartment encountering two buddies out within the snowfall. He convinces them to-go visit her and also to make an effort to get her to possess intercourse with them so he can hook them. They are doing, and also the hot teen-aged gender that is is fairly amazing with giant cocks penetrating vagina. They log off, and as designed, the sweetheart will come in now includes a purpose to toss her out. The son she's today with is hardly sec and the two of them go to obtain it on immediately on his chair. He's an excellent penis and body that is trim. No condoms within the video, merely two of the four boys interact intimately, but all are not really cold, have major cocks and throw at important masses. Another great "teaching video" for your closeted friends who simply must-see a girl in a vid to be able to functionality.

Доп. информация: http://www.gayeroticvideoindex.com/V/7/33777.html

Качество видео: VOD
Формат видео: WMV
Видео кодек: Windows Media
Аудио кодек: WMA
Видео: WMV2, 768x576 (4/3), 25.000 fps, INCH 995 Kbps (0.180 bit/pixel)
Аудио: WMA2, 48.0 KHz, 2 ch, 64.0 Kbps

MediaInfo

Полное имя: H:XXX[apreder]XXX_Geile_Helena(1999)VOD.wmvФормат : Windows MediaРазмер файла : 1,06 ГбайтПродолжительность : 1 ч. 10 м.Режим общего битрейта : ПостоянныйОбщий поток : 2154 Кбит/секМаксимальный общий битрейт : 2127 Кбит/секДата кодирования : UTC 1970-01-01 00:00:00.000Правообладатель : AEBN.comcopyright: AEBN.comWM/EncodingSettings: Lavf52.93.0
ВидеоИдентификатор : 1Формат : WMV2Идентификатор кодека : WMV2Идентификатор кодека/Информация : Windows Media Video 8Описание кодека : wmv2Продолжительность : 1 ч. 10 м.Битрейт : 1995 Кбит/секШирина : 768 пикселейВысота : 576 пикселейСоотношение сторон : 4:3Частота кадров : 25,000 кадров/секБитовая глубина : 8 битБит/(Пиксели*Кадры) : 0.180Размер потока : 1003 Мбайт (93%)
АудиоИдентификатор : 2Формат : WMAВерсия формата : Version 2Идентификатор кодека : 161Идентификатор кодека/Информация : Windows Media MusicОписание кодека : Windows Media Audio V8Продолжительность : 1 ч. 10 м.Битрейт : 64,0 Кбит/секКаналы : 2 каналаЧастота : 48,0 КГцБитовая глубина : 16 битРазмер потока : 32,2 Мбайт (3%)

Скриншоты

Скриншоты резерв

-

Мой
1687 релиз на pornolab.net

Filelist

[apreder]XXX_Geile_Helena(1999)VOD.wmv 1134765551