HqCollect.me

Bisexual Barebacking 8 / Бисексуальное неистовство 8 (Robert Hill, Robert Hill Releasing) [2011 г., All Sex, Anal, Oral, Threesomes, Outdoor Sex, VOD] (2.22 GB)


Bisexual Barebacking 8 / Бисексуальное неистовство 8 (Robert Hill, Robert Hill Releasing) [2011 г., All Sex, Anal, Oral, Threesomes, Outdoor Sex, VOD]

Description

Bisexual Barebacking 8

Бисексуальное неистовство 8
-

Год производства: 2011 г.
Страна: US
Доминирующий жанр: Бисексуалы
Жанр: All Sex, Anal, Dental, Threesomes, Outdoor Intercourse
Продолжительность: 02:30:35

Режиссер: John Hill
Студия: Robert Hill Releasing

В ролях: Lorena, Senior, Diablo, Kalena Rios

Описание: it's this that I'm speaking about - person ass, small woman ass, hard cocks, wet pussies and moist, painful ass holes. Your entire sexual perversities are in one smokin' sizzling flick with all Robert Hill's dark brain. Observe five group views with a lot of ass fucking and cock sucking. Lots of facial cums that is gooey hundreds where not really a drop is misplaced!

Доп. информация: http://www.gayhotmovies.com/movie/202094/Bisexual-Barebacking-8/

Качество видео: VOD
Формат видео: WMV
Видео кодек: Windows Media
Аудио кодек: WMA
Видео: WMV2, 640x480 (4/3), 29.970 fps, INCH 998 Kbps (0.217 bit/pixel)
Аудио: WMA2, 48.0 KHz, 2 ch, 64.0 Kbps

MediaInfo

Полное имя: H:XXX[apreder]XXX_Bisexual_Barebacking_8(2011)VOD.wmvФормат : Windows MediaРазмер файла : 2,27 ГбайтПродолжительность : 2 ч. 30 м.Режим общего битрейта : ПостоянныйОбщий поток : 2156 Кбит/секМаксимальный общий битрейт : 2128 Кбит/секДата кодирования : UTC 1970-01-01 00:00:00.000Правообладатель : AEBN.comcopyright: AEBN.comWM/EncodingSettings: Lavf52.93.0
ВидеоИдентификатор : 1Формат : WMV2Идентификатор кодека : WMV2Идентификатор кодека/Информация : Windows Media Video 8Описание кодека : wmv2Продолжительность : 2 ч. 30 м.Битрейт : 1998 Кбит/секШирина : 640 пикселейВысота : 480 пикселейСоотношение сторон : 4:3Частота кадров : 29,970 кадров/секБитовая глубина : 8 битБит/(Пиксели*Кадры) : 0.217Размер потока : 2,10 Гбайт (93%)
АудиоИдентификатор : 2Формат : WMAВерсия формата : Type 2Идентификатор кодека : 161Идентификатор кодека/Информация : Windows Media SoundОписание кодека : Windows Media Audio V8Продолжительность : 2 ч. 30 м.Битрейт : 64,0 Кбит/секКаналы : 2 каналаЧастота : 48,0 КГцБитовая глубина : 16 битРазмер потока : 68,9 Мбайт (3%)

Скриншоты

Скриншоты резерв

-

Мой
1743 релиз на pornolab.net

Filelist

[apreder]XXX_Bisexual_Barebacking_8(2011)VOD.wmv 2435063277