HqCollect.me

Bi-Bi Stu / Паровозики Стю (Uncredited, Bi Now Productions, Legend) [2001 г., All Sex, Anal, Oral, Threesomes, Bisexual, DVDRip] (1.62 GB)


Bi-Bi Stu / Паровозики Стю (Uncredited, Bi Now Productions, Legend) [2001 г., All Sex, Anal, Oral, Threesomes, Bisexual, DVDRip]

Description

Bi-Bi Stu

Паровозики Стю
-

Год производства: 2001 г.
Страна: US
Доминирующий жанр: Бисексуалы
Жанр: All Sex, Anal, Dental, Threesomes, Bisexual
Продолжительность: 01:20:21

Режиссер: Uncredited
Студия: Bi Now Productions, Story

В ролях: Stu

Описание: Stu's living is a wreck. His fat slob of a partner only does not convert him on anymore. His coworkers make fun of his girlsih techniques and he typically locks herself such as the little bitch he is in his workplace and weeps. So Stu turns to the only factor that actually makes him feel just like a man it is period to get a change. A hard that is big cock. Is that this what is been missing in the horrible existence of Stu? Couldn't an enormous penis in the butt be the reply of Stu? The reality is on the market.

Доп. информация: http://www.gayeroticvideoindex.com/V/3/19793.html

Качество видео: DVDRip
Формат видео: WMV
Видео кодек: Windows Media
Аудио кодек: WMA
Видео: WMV2, 640x480 (4/3), 23.976 fps, 2 875 Kbps (0.390 bit/pixel)
Аудио: WMA2, 44.1 KHz, 2 ch, 64.0 Kbps, CBR (en-us)

MediaInfo

Полное имя: H:XXX[apreder]XXX_Bi-Bi_Stu(2001)DVDRip.wmvФормат : Windows MediaРазмер файла : 1,66 ГбайтПродолжительность : 1 ч. 20 м.Режим общего битрейта : ПеременныйОбщий поток : 2961 Кбит/секМаксимальный общий битрейт : 5784 Кбит/секНазвание фильма : Bi-Bi StuДата кодирования : UTC 2007-06-29 03:45:45.789
ВидеоИдентификатор : 2Формат : WMV2Идентификатор кодека : WMV2Идентификатор кодека/Информация : Windows Media Movie 8Продолжительность : 1 ч. 20 м.Вид битрейта : ПеременныйБитрейт : 2875 Кбит/секШирина : 640 пикселейВысота : 480 пикселейСоотношение сторон : 4:3Частота кадров : 23,976 кадра/секБитовая глубина : 8 битБит/(Пиксели*Кадры) : 0.390Размер потока : 1,61 Гбайт (97%)Язык : Language (US)
АудиоИдентификатор : 1Формат : WMAВерсия формата : Model 2Идентификатор кодека : 161Идентификатор кодека/Информация : Windows Media AudioПродолжительность : 1 ч. 20 м.Вид битрейта : ПостоянныйБитрейт : 64,0 Кбит/секКаналы : 2 каналаЧастота : 44,1 КГцБитовая глубина : 16 битРазмер потока : 36,8 Мбайт (2%)Язык : Language (US)

Скриншоты

Скриншоты резерв

-

Мой
1825 релиз на pornolab.net

Filelist

[apreder]XXX_Bi-Bi_Stu(2001)DVDRip.wmv 1784286488